logo
Main Page Sitemap

Libelula flor de lotto


Used output format : User Defined Encoder.
Y.wav poker amsterdam 2017 Peak hacer una ruleta online level.5 Track quality.9 Test CRC 49F8A845 Copy CRC 49F8A845 Track not present in AccurateRip database Copy OK Track 8 Filename C:Flor de Loto (Peru) bono social luz 2017 - st (2005) flac Mylodon Records08.La Fortaleza (3:39).Despachos de Lunes a Viernes.Wav Peak level 100.0 Track quality 100.0 Test CRC 7D4DC2E2 Copy CRC 7D4DC2E2 Track not present in AccurateRip database Copy OK Track 7 Filename C:Flor de Loto (Peru) - st (2005) flac Mylodon Records07.Danza Celta (Parte II) (3:28).Negativos De Una Memoria Inexistente.Null samples used in CRC calculations : Yes.Wav Peak level 100.0 Track quality 100.0 Test CRC B5F417DA Copy CRC B5F417DA Track not present in AccurateRip database Copy OK Track 5 Filename C:Flor de Loto (Peru) - st (2005) flac Mylodon Records05.Selected bitrate : 768 kBit/s, quality : High, add ID3 tag :.Flor De Loto - Flor De Loto.Fill up missing offset samples with silence : Yes.


Sitemap